#TITLE:Onna No Ko Loves Otoko No Ko;
#SUBTITLE:- School Rumble 1st Term Ending;
#ARTIST:Ogura Yuko;
#TITLETRANSLIT:;
#SUBTITLETRANSLIT:;
#ARTISTTRANSLIT:;
#CREDIT:Dj DMAxel;
#BANNER:Onna No Ko Loves Otoko No Ko (TV Size).png;
#BACKGROUND:Onna No Ko Loves Otoko No Ko (TV Size)-bg.png;
#LYRICSPATH:Onna No Ko Loves Otoko No Ko (TV Size).lrc;
#CDTITLE:Dj DMA Original Simfile.png;
#MUSIC:Onna No Ko Loves Otoko No Ko (TV Size).mp3;
#OFFSET:0.100;
#SAMPLESTART:34.117;
#SAMPLELENGTH:12.000;
#SELECTABLE:YES;
#BPMS:0.000=162.000;
#STOPS:;
#BGCHANGES:3.000=Onna No Ko Loves Otoko No Ko (TV Size).AVI=1.000=0=0=1,
99999=-nosongbg-=1.000=0=0=0 // don't automatically add -songbackground-
;
// cache tags:
#FIRSTBEAT:3.000;
#LASTBEAT:212.000;
#SONGFILENAME:songs/Otaku's Dream 3rd Anime Mix/[Dj DMAxel] Onna No Ko Loves Otoko No Ko (TV Size) - School Rumble ED/Onna No Ko Loves Otoko No Ko (TV Size).sm;
#HASMUSIC:1;
#HASBANNER:1;
#MUSICLENGTH:84.932;
// end cache tags

//---------------dance-single - ----------------
#NOTES:
     dance-single:
     :
     Easy:
     3:
     0.178,0.250,0.035,0.024,0.000,101.000,3.000,2.000,0.000,0.000:
0000
0000
0000
0000
,
0000
0000
0000
0000
,
0000
0000
0000
0000
,
0000
0000
1000
0000
,
0010
0000
0100
0000
,
0001
0000
1000
0000
,
0010
0000
0100
0000
,
0010
0000
0001
0000
,
1000
0000
0001
0000
,
1000
0000
0010
0000
,
1000
0000
0100
0000
,
0001
0000
0010
0000
,
0001
0000
1100
0000
,
0010
0000
0100
0000
,
0010
0011
0000
0100
,
0000
0001
0000
1000
,
0000
0010
0000
0100
,
0000
0020
0000
0000
,
0000
0000
0000
0000
,
0030
0100
0100
0000
,
0010
0000
0100
0000
,
0001
0000
1000
0000
,
0010
0000
1000
0000
,
0100
0000
1000
0000
,
0010
0000
1000
0000
,
0010
0000
0100
0000
,
0001
0000
0010
0000
,
1000
0000
0010
0000
,
0100
0000
0010
0000
,
0001
0000
1000
0000
,
0010
0000
0200
0000
,
0300
0001
0001
0000
,
1000
0000
0010
0000
,
0100
0000
0010
0000
,
0100
0000
0010
0000
,
0001
0000
1000
0000
,
0010
0000
0100
0000
,
0010
0000
0100
0000
,
0001
0000
1000
0000
,
0010
0000
0100
0000
,
0001
0000
1000
0000
,
0010
0000
0100
0000
,
0010
0000
0001
0000
,
0001
0000
1000
0010
,
1000
0000
0100
0101
,
0010
0001
0100
0000
,
1000
0000
0001
0000
,
0100
0000
0010
0000
,
0001
0000
1000
0000
,
0010
0000
0100
0000
,
0001
0000
1000
0000
,
0010
0000
0100
0000
,
0001
0000
1000
0000
,
1000
0000
0000
0000
;

//---------------dance-single - ----------------
#NOTES:
     dance-single:
     :
     Hard:
     7:
     0.446,0.437,0.483,0.035,0.000,221.000,41.000,3.000,0.000,0.000:
0000
0000
0000
2002
,
0000
3003
0010
0100
,
0010
0011
0100
0101
,
1001
0110
1000
0010
,
1000
0010
0100
0010
,
0001
0011
0100
0001
,
0100
0101
1000
0010
,
0100
0110
1000
0010
,
0001
0010
1000
0010
,
0100
0110
0010
0001
,
0100
1000
0010
1000
,
0001
1001
0100
0010
,
0001
0010
0100
0110
,
0001
0100
1000
0010
,
0001
0011
0100
1000
,
0100
0010
1000
0010
,
0100
0010
0001
0100
,
1000
0100
2000
0000
,
3001
0000
1000
0010
,
0100
0001
0011
0100
,
0101
0010
1100
0010
,
1010
0100
0011
0100
,
0010
0001
0010
1000
,
0010
0110
0010
1000
,
0100
0001
0100
1000
,
0010
0011
0100
1000
,
0100
0001
0100
1000
,
0010
0110
1000
0010
,
0001
0011
0100
0101
,
0010
1100
0010
1000
,
0010
0100
0110
0101
,
0010
1000
0001
1000
,
0010
1000
0001
0010
,
0100
0110
0001
0010
,
1000
0001
0100
0001
,
0010
0011
0100
1000
,
0010
1000
0010
0100
,
0010
0110
1000
0010
,
0100
0001
0100
1000
,
0100
0101
1000
1010
,
0100
0110
0010
0011
,
0001
0101
1000
1100
,
0001
0101
0010
1000
,
1001
0100
0011
0101
,
1010
0100
0001
1000
,
0001
0000
1000
0000
0001
0000
1000
0001
,
1000
0010
1000
0010
0100
0010
1000
0100
,
1000
0100
0001
0100
1000
0000
0000
0000
,
0000
1000
0001
0001
1000
1000
0001
0000
,
0001
0000
1000
0000
0010
0000
1000
0010
,
1000
0010
0100
0010
0001
0100
1000
0100
,
0001
0100
1000
0010
1000
0000
0000
0000
,
0000
1010
0000
0100
0100
0100
0010
0000
,
0011
0000
0000
0000
;

//---------------dance-single - ----------------
#NOTES:
     dance-single:
     :
     Challenge:
     8:
     0.607,0.530,0.471,0.000,0.018,321.000,40.000,0.000,0.000,0.000:
0000
0000
0000
0000
0000
0000
0000
0000
0000
0000
0000
0000
1000
0001
1000
0001
,
1000
0001
1000
0000
0010
0000
0000
0000
0100
0000
0001
0000
1000
0000
0000
0000
,
1000
0010
1000
0000
0001
0000
0100
0000
,
0101
0000
1010
0000
0100
0000
0001
0100
,
1000
0100
0001
0000
1000
0010
1000
0010
,
0100
0010
1000
0001
1000
0000
0100
0000
,
0101
1000
1010
0100
,
0110
0000
0010
0000
0001
0000
0001
0100
,
1000
0010
1000
0000
1000
0010
1000
0010
,
0100
0010
0001
0010
0001
0000
0001
0000
,
0011
0001
1100
0010
,
1010
0101
1010
0001
,
0001
0100
1000
0100
0001
0100
1000
0000
,
1000
0010
0100
0000
0010
0000
0001
0010
,
0100
0100
0110
0000
0101
0000
0100
0000
,
0010
1000
0010
1000
0010
0100
1000
0010
,
0000
1000
0010
1000
0010
0100
0000
0001
,
0100
0010
0001
0000
0011
0000
0001
0000
,
0101
1100
0101
0101
,
0110
0000
1010
0000
0001
0100
1000
0000
,
1000
0100
0001
0100
0010
1000
0010
1000
,
0010
0000
1000
0001
0100
1000
0010
1000
,
0010
0100
0010
0100
0001
0100
0000
0000
,
1000
0100
0001
0100
1000
0010
1000
0010
,
0100
0010
1000
0010
0100
1000
0100
1000
,
0010
0000
1010
0100
0010
0100
0001
0010
,
0100
0001
0001
0010
0100
0010
0001
0100
,
0010
0100
0010
0001
0100
1000
0100
0001
,
0100
1000
0010
0000
1000
0000
1010
0000
,
0100
0110
0101
0011
,
0101
0000
0001
0000
0001
0100
1000
0010
,
0100
0000
0001
0100
1000
0100
0001
0000
,
1000
0010
1000
0000
0100
0010
0100
0001
,
0100
1000
0100
1000
0100
1000
0010
1000
,
0010
0100
0010
0000
0010
0000
0011
0000
,
0101
0000
0001
0100
1000
0100
0001
0000
,
1000
0010
1000
0100
0010
0010
1000
0001
,
1000
0100
0010
0010
0100
0010
1000
0010
,
0100
0010
0001
0000
0010
0000
0011
0000
,
1010
0000
0001
0100
1000
0100
0001
0100
,
1000
0010
1000
0010
0100
0010
1000
0010
,
1000
0100
0001
0000
0100
0001
0100
0000
,
1000
0100
0001
0000
0101
0000
1000
0000
,
1010
0110
0101
0010
,
1000
0001
1001
0110
,
1010
0000
0101
0000
0001
0000
0100
0100
,
0100
0100
0100
0100
0100
0100
0100
0100
,
0100
0100
0010
0001
0100
0000
0000
0000
,
0000
1001
0000
1000
1000
1000
1000
0010
,
0100
0000
0010
0000
0011
0000
0001
0001
,
0001
0001
0001
0010
0100
1000
0100
0001
,
0100
1000
0100
0001
0010
0000
0000
0000
,
0000
1000
1000
1000
1000
1000
0010
0000
,
0110
0000
0000
0000
;

//---------------dance-single - ----------------
#NOTES:
     dance-single:
     :
     Medium:
     4:
     0.252,0.312,0.153,0.094,0.000,129.000,13.000,8.000,0.000,0.000:
0000
0000
0000
0000
,
0000
0000
1000
0000
,
0010
0000
0100
0000
,
0010
0000
0001
0000
,
0100
0000
1000
0000
,
0010
0000
0100
0000
,
0010
0000
0001
0000
,
0001
0000
1000
0000
,
0010
0000
0100
0000
,
0001
0000
0010
0000
,
1000
0000
0010
0000
,
0100
0010
0011
0100
,
1000
0100
0001
0101
,
1000
0010
0100
0010
,
1000
1010
0100
0010
,
0001
0100
0010
0001
,
0010
0100
0010
1000
,
0010
0100
0001
0000
,
1000
0000
0010
0100
,
0011
0001
1000
0010
,
1000
0010
0100
0000
,
0000
0001
0100
1000
,
0010
1000
0001
0010
,
0000
0100
0010
0001
,
0100
0010
0001
0010
,
0001
1010
0100
0010
,
0100
0010
1000
0010
,
0100
0110
0010
0001
,
0100
1000
0000
0000
,
0001
0000
1000
0010
,
0100
0010
1010
0101
,
0010
0002
0000
0000
,
0000
0000
0003
1000
,
0010
0200
0000
0000
,
0000
0000
0300
0000
,
0010
2000
0000
0000
,
0000
0000
0000
3010
,
0100
0002
0000
0000
,
0000
0000
0000
0003
,
1000
0010
0100
0010
,
0001
0010
0100
0010
,
0001
0010
1000
0010
,
0100
0010
0110
0000
,
1001
0001
0100
1000
,
0100
0001
0011
0101
,
1010
0200
0000
0000
,
0000
0000
0000
0000
,
0000
0000
0300
0000
,
0002
0000
0000
0000
,
0003
2000
0000
0000
,
0000
0000
0000
0000
,
0000
0000
3000
0000
,
0200
0000
0000
0000
,
0300
0000
0000
0000
;
